#TITLE:Beautiful Story;
#SUBTITLE:- Getsumen To Heiki Mina Ending;
#ARTIST:Inoue Marina;
#TITLETRANSLIT:;
#SUBTITLETRANSLIT:;
#ARTISTTRANSLIT:;
#CREDIT:Jubo;
#BANNER:Getsumen To Heiki Mina ED-bn.avi;
#BACKGROUND:Getsumen To Heiki Mina ED-bg.jpg;
#LYRICSPATH:Getsumen To Heiki Mina ED.lrc;
#CDTITLE:Jubo.png;
#MUSIC:Getsumen To Heiki Mina ED.mp3;
#OFFSET:0.114;
#SAMPLESTART:44.211;
#SAMPLELENGTH:29.470;
#SELECTABLE:YES;
#BPMS:0.000=132.040;
#STOPS:;
#BGCHANGES:0.250=Getsumen To Heiki Mina ED-Video.avi=1.000=1=0=0,
173.500=Getsumen To Heiki Mina ED-bg.jpg=1.000=1=0=0,
99999=-nosongbg-=1.000=0=0=0 // don't automatically add -songbackground-
;
// cache tags:
#FIRSTBEAT:1.500;
#LASTBEAT:174.500;
#SONGFILENAME:songs/Otaku's Dream 3rd Anime Mix/[Jubo] Beautiful Story - Getsumen To Heiki Mina ED/Getsumen To Heiki Mina ED.sm;
#HASMUSIC:1;
#HASBANNER:1;
#MUSICLENGTH:79.848;
// end cache tags

//---------------dance-single - Step by Jubo----------------
#NOTES:
     dance-single:
     Step by Jubo:
     Hard:
     7:
     0.437,0.435,0.225,0.150,0.038,214.000,18.000,12.000,0.000,0.000:
0000
0000
0000
1001
,
0001
1000
0010
0100
0000
0110
0000
0010
,
0100
0000
0000
0010
0100
0001
1000
0000
,
1000
0001
0000
0100
0000
0010
0000
1000
,
0001
0000
0000
0001
1000
0100
0000
0010
,
0010
0000
0000
0001
0100
0010
0000
0100
,
0100
0000
0000
0100
0001
0010
0000
0000
,
0001
0100
0010
1000
0000
0002
0000
0000
,
2000
0000
0000
0000
0000
0000
0000
0000
0000
3003
0000
0000
1001
0000
0000
0000
,
0100
0001
1000
0000
0000
0100
0010
0100
,
0000
0110
0000
0010
1000
0010
0100
0000
,
0001
0100
0010
0000
1000
0010
0100
0001
,
0000
0101
0000
0000
1000
0001
1000
0000
,
0010
1000
0001
0000
1000
0010
0100
0010
,
0000
0110
0000
0100
0001
0100
0010
0000
,
0100
0010
1000
0000
0000
0001
1000
0001
,
0000
1000
0000
0001
0100
0010
1000
0000
,
1010
0000
0010
0000
0011
0000
0010
0001
,
0010
0100
1000
0100
0010
0001
0010
0000
,
0011
0000
0010
0000
1010
0000
0010
1000
,
0001
0100
0010
1000
0100
0010
0001
0000
,
1001
0100
0110
0010
,
0100
0000
0010
0000
0000
0000
0010
0000
0000
0000
0220
0000
0000
0330
0000
0000
,
1001
0000
0110
0000
,
2002
0000
0000
0000
0000
3003
0000
0000
0001
0000
1000
0000
0010
0000
0000
0000
,
0100
0010
1000
0001
0000
1000
0000
1000
,
1001
0000
0000
1000
0001
0010
0001
0000
,
0001
0010
0000
0010
0000
0100
0000
0100
,
0110
0000
0000
0010
0001
0010
0000
0100
,
2000
0000
3000
0100
1000
0100
0000
0010
,
0002
0000
0003
0010
0001
0010
0000
0001
,
0010
0100
1000
0001
0000
0200
0000
0000
,
0310
0000
0000
1000
0010
0100
0001
0000
,
1000
0001
1000
0010
0000
0100
0000
0001
,
1000
0000
0001
1000
0001
0000
0000
0000
0100
0000
0001
0000
1000
0000
0000
0000
,
0010
0000
0100
0010
0100
0000
0010
0000
0000
0000
1000
0000
0000
0000
0001
0000
,
0100
0000
0001
0100
0001
0000
0000
0000
1000
0000
0010
0000
0000
0000
0010
0000
,
1000
0000
0010
1000
0010
0000
1000
0000
0001
0000
0100
0000
0000
0000
0001
0000
,
0100
0000
0001
0100
0001
0000
0100
0000
0010
0000
1000
0000
0000
0000
0000
0000
,
0100
1000
0001
0010
0000
0002
0000
0003
,
1000
0000
1000
0010
0000
0200
0000
0000
,
0000
0000
0000
0320
0000
0000
0000
0000
0000
0000
0000
0000
0000
0000
0000
0000
,
0000
0000
0000
0000
,
0000
0000
0000
0030
0000
0000
0000
0000
;

//---------------dance-single - Step by Jubo----------------
#NOTES:
     dance-single:
     Step by Jubo:
     Challenge:
     9:
     0.871,0.789,1.000,0.539,0.094,316.000,128.000,43.000,0.000,0.000:
0000
0000
0000
1010
0110
0011
2002
3003
,
0011
1000
0010
0100
1100
0110
0010
1001
,
0011
0100
1000
0100
0011
0001
0101
0100
,
1100
0110
0001
0101
1100
1000
0001
0110
,
0011
0100
1000
0001
0101
0010
1000
0011
,
1001
0100
1000
0001
1010
0010
0011
0110
,
0101
0010
0001
0100
1001
2100
3001
0010
,
0110
0000
0000
0000
0100
0000
0000
0000
0010
0000
0000
0000
1000
0000
0000
0000
1001
0000
0000
0000
0202
0000
0000
0303
0000
0000
0000
0000
0000
0000
0000
0000
,
2002
0000
0000
3003
0001
0000
1000
0000
0010
0100
0010
0000
2002
3003
0000
0000
,
0101
0001
0110
0100
1100
0100
0010
0100
,
0101
0110
0010
0110
1100
1001
0101
0010
,
1001
0100
0011
0100
0110
0010
0100
0011
,
1100
0202
0303
1000
1010
0011
1001
0001
,
0011
0010
1001
0100
1100
0010
0100
0010
,
1010
0220
0330
0110
0011
1001
1010
0010
,
0110
0010
1100
0100
0101
0001
1000
0001
,
1001
1000
0010
0001
0100
0010
0110
0010
,
1010
0001
0110
1000
1001
0001
0110
0001
,
1010
0001
1100
0001
1010
0100
0011
0100
,
1001
0010
1100
0010
0101
1000
0011
0100
,
1010
0010
0011
0001
0101
0100
0110
0010
,
1010
1000
1100
0100
0101
0001
0011
0010
,
1010
0010
0110
0100
0101
0021
0100
0000
,
2000
3000
0000
0000
0001
0000
0000
0000
0000
0000
0000
0000
0001
0000
0000
0000
2000
3000
0000
0000
0000
0000
0000
0000
0200
0330
0000
0000
0000
0000
0000
0000
,
2002
0000
0000
0000
0000
3003
1000
0000
0001
1000
0001
0000
1001
0000
1000
0000
,
1010
0010
0100
0001
1001
1000
0001
0100
,
0202
0303
0000
0010
1010
1000
0010
0100
,
0101
0001
0100
0010
0110
0100
0010
1000
,
2020
0000
3030
0000
0000
0000
0110
0000
0011
0000
2020
3030
0000
0000
0101
0000
,
2100
0000
0001
0000
3000
0000
0100
0000
1100
0000
0202
0303
0000
0000
1010
0000
,
0012
1000
0003
1010
0011
0110
0100
1000
,
0101
0000
0000
0000
0010
0000
0000
0000
0001
0000
0000
0000
1000
0000
0000
0000
1010
0000
0000
0000
0120
0000
0000
0000
0200
0300
0000
0000
0000
0000
0000
0000
,
2000
3030
0000
0000
0002
0000
0000
0000
0003
0000
0000
0000
1100
0000
0000
0000
0110
0000
0000
0000
0101
0000
0000
0000
0022
0033
0000
0000
0001
0000
0000
0000
,
1000
0000
0001
1000
0011
0000
1000
0000
0010
0000
0100
0000
1000
0000
0001
0000
,
1000
0000
0001
1000
0110
0000
1000
0000
0100
0000
0001
0000
1000
0000
0001
0000
,
0010
0000
0100
0010
1100
0000
0010
0000
0100
0000
1000
0000
0010
0000
0001
0000
,
0100
0000
0001
0100
0011
0000
0100
0000
1000
0000
0010
0000
0100
0000
0010
0000
,
1000
0000
0010
1000
0011
0000
1000
0000
0001
0000
0100
0000
1000
0000
0001
0000
,
0100
0000
0001
0100
0011
0000
0100
0000
0010
0000
1000
0000
0001
0000
1000
0000
,
0010
0000
0100
0001
1100
0000
0010
0000
1000
0000
0012
0000
0100
0000
1003
0000
,
0011
0000
0100
0000
1001
0000
0010
0000
1100
0001
0100
0010
2200
0000
0000
0000
,
0000
0000
0000
0000
3300
0000
0220
0000
0000
0000
0000
0000
0000
0000
0000
0030
0000
0000
0020
0000
0000
0000
0000
0000
0000
0000
0000
0000
0000
0000
0000
0000
,
0000
0030
0000
0020
0000
0000
0000
0000
0300
0000
0000
0000
0000
0030
0000
0020
,
0000
0000
0000
0000
0000
0000
0000
0030
0000
0000
0000
0000
0000
0000
0000
0000
;

//---------------dance-single - Step by Jubo----------------
#NOTES:
     dance-single:
     Step by Jubo:
     Medium:
     5:
     0.329,0.380,0.288,0.213,0.000,144.000,23.000,17.000,0.000,0.000:
0000
0000
0000
0000
,
1000
0000
0010
0000
,
0100
0000
0001
0000
,
0100
0000
0010
0000
,
1000
0000
0001
1000
,
1000
1000
1000
0001
,
0001
0001
0001
0100
,
0100
0100
0100
0220
,
0000
0000
0000
0330
,
1000
0010
0100
0010
,
1000
0100
0010
0100
,
1000
0001
0100
0010
,
1000
0100
0010
0110
,
0100
1000
0001
0100
,
0001
0010
0100
0110
,
0010
0001
0100
0010
,
0100
0001
0100
1000
,
1100
0100
0101
0001
,
0011
0010
0110
0100
,
1100
1000
1001
0001
,
0101
0100
0110
0010
,
1010
1000
1001
0001
,
0011
0010
1010
1000
,
1100
0000
0110
0000
,
0022
0033
1000
0100
,
0010
0001
0100
0100
,
0010
0010
1000
0100
,
0010
0001
0100
0100
,
0010
0010
1000
1000
,
2200
3300
0001
0001
,
0022
0033
0001
0010
,
0100
1000
0010
1010
,
1000
0010
0100
0001
,
1000
0001
1000
0000
0010
0000
0100
0000
,
0002
0003
0100
0010
,
0100
0010
0100
0000
0001
0000
1000
0000
,
0020
0030
0100
0001
,
2000
3000
0010
0100
,
0002
0000
0003
0000
1000
0001
1000
0000
,
0001
0010
0200
0310
,
0100
1000
0001
0202
,
0303
2002
0000
0000
0000
0000
0000
0000
,
0000
0000
0000
0000
,
0000
0000
0000
3003
0000
0000
0000
0000
;

//---------------dance-single - Step by Jubo----------------
#NOTES:
     dance-single:
     Step by Jubo:
     Easy:
     3:
     0.175,0.273,0.213,0.050,0.000,77.000,17.000,4.000,0.000,0.000:
0000
0000
0000
0000
,
1000
0000
0010
0000
,
1000
0000
0001
0000
,
1000
0000
0100
0000
,
1000
0000
0010
0000
,
0001
0000
1000
0000
,
0001
0000
0100
0000
,
0001
0000
0010
0000
,
0022
0000
0000
0033
,
0001
0000
0010
0000
,
0100
0000
1000
0000
,
0010
0000
1000
0000
,
0001
0000
0100
0000
,
0010
0000
1000
0000
,
0001
0000
0100
0000
,
1000
0000
0100
0000
,
0010
0000
0001
0000
,
0101
0000
0101
0000
,
0110
0000
0110
0000
,
1010
0000
1010
0000
,
1001
0000
1001
0000
,
0011
0000
0011
0000
,
0110
0000
0110
0000
,
1100
0000
1001
0000
,
0011
0000
0000
0000
,
1000
0000
0100
0000
,
0010
0000
0001
0000
,
1000
0000
0001
0000
,
1000
0000
0010
0000
,
0010
0000
0100
0000
,
0100
0000
0001
0000
,
0010
0000
0100
0000
,
1000
0000
0000
0000
,
0001
0000
0010
0000
,
0100
0000
1000
0000
,
0001
0000
1000
0000
,
0001
0000
0100
0000
,
0100
0000
0010
0000
,
0010
0000
1000
0000
,
0100
0000
0010
0000
,
0001
0000
0000
2002
,
0000
0000
0000
0000
,
0000
0000
0000
0000
,
0000
0000
0000
0000
0000
3003
0000
0000
;

//---------------dance-single - Step by Jubo----------------
#NOTES:
     dance-single:
     Step by Jubo:
     Beginner:
     1:
     0.102,0.164,0.125,0.075,0.000,41.000,10.000,6.000,0.000,0.000:
0000
0000
0000
0000
,
1000
0000
0000
0000
,
1000
0000
0000
0000
,
1000
0000
0000
0000
,
1000
0000
0000
0000
,
0001
0000
0000
0000
,
0001
0000
0000
0000
,
0001
0000
0000
0000
,
0220
0000
0000
0330
,
0010
0000
0000
0000
,
0010
0000
0000
0000
,
0010
0000
0000
0000
,
0010
0000
0000
0000
,
0100
0000
0000
0000
,
0100
0000
0000
0000
,
0100
0000
0000
0000
,
0100
0000
0000
0000
,
0101
0000
0000
0000
,
0101
0000
0000
0000
,
1010
0000
0000
0000
,
1010
0000
0000
0000
,
1001
0000
0000
0000
,
1001
0000
0000
0000
,
0110
0000
0000
0000
,
0220
0000
0330
0000
,
1000
0000
0000
0000
,
1000
0000
0000
0000
,
1000
0000
0000
0000
,
0001
0000
0000
0000
,
0001
0000
0000
0000
,
0001
0000
0000
0000
,
0100
0000
0000
0000
,
0100
0000
0000
0000
,
0001
0000
0000
0000
,
0001
0000
0000
0000
,
0001
0000
0000
0000
,
1000
0000
0000
0000
,
1000
0000
0000
0000
,
1000
0000
0000
0000
,
0010
0000
0000
0000
,
0010
0000
0000
2002
,
0000
0000
0000
0000
,
0000
0000
0000
0000
,
0000
0000
0000
0000
0000
3003
0000
0000
;
